Canon PowerShot SX70 HS Superzoom camera bitrate and 4K video file size info

Canon PowerShot SX70 Bitrate: 123 Mb/s video file size

The Powershot Canon SX70 HS camera can record maximum video resolution of 3 840 x 2 160 pixels 4K Ultra HD. With bitrate up to 120 MB/ s.

Technical video file info:

General
Complete name: Canon SX70 MVI_2028.MP4
Format : MPEG-4
Format profile : Base Media / Version 2
Codec ID : mp42 (mp42/avc1/CAEP)
File size : 97.0 MiB
Duration : 6 s 573 ms
Overall bit rate : 124 Mb/s
Encoded date : UTC 2020-09-10 18:03:19
Tagged date : UTC 2020-09-10 18:03:19

Video
ID : 1
Format : AVC
Format/Info : Advanced Video Codec
Format profile : High@L5.1
Format settings : 2 Ref Frames
Format settings, CABAC : No
Format settings, Reference frames : 2 frames
Format settings, GOP : M=3, N=15
Codec ID : avc1
Codec ID/Info : Advanced Video Coding
Duration : 6 s 573 ms
Bit rate : 123 Mb/s
Width : 3 840 pixels
Height : 2 160 pixels
Display aspect ratio : 16:9
Frame rate mode : Constant
Frame rate : 29.970 (30000/1001) FPS
Color space : YUV
Chroma subsampling : 4:2:0
Bit depth : 8 bits
Scan type : Progressive
Bits/(Pixel*Frame) : 0.495
Stream size : 96.5 MiB (100%)
Language : English
Encoded date : UTC 2020-09-10 18:03:19
Tagged date : UTC 2020-09-10 18:03:19
Color range : Full
Color primaries : BT.709
Transfer characteristics : BT.709
Matrix coefficients : BT.709
Codec configuration box : avcC

Audio
ID : 2
Format : AAC LC
Format/Info : Advanced Audio Codec Low Complexity
Codec ID : mp4a-40-2
Duration : 6 s 571 ms
Bit rate mode : Constant
Bit rate : 256 kb/s
Channel(s) : 2 channels
Channel layout : L R
Sampling rate : 48.0 kHz
Frame rate : 46.875 FPS (1024 SPF)
Compression mode : Lossy
Stream size : 203 KiB (0%)
Language : English
Encoded date : UTC 2020-09-10 18:03:19
Tagged date : UTC 2020-09-10 18:03:19